So Beheben Sie Das Problem Mit Dem Support-ID 74-Codec Für 0.1-Ideenstream

So Beheben Sie Das Problem Mit Dem Support-ID 74-Codec Für 0.1-Ideenstream

January 26, 2022 Off By Ryan Nolan

Können Sie die Fehler und Abstürze Ihres Computers nicht mehr ertragen? Klicke hier zum herunterladen.

In einigen Fällen gibt Ihr Familiensystem möglicherweise eine Fehlermeldung aus, welche Codec-ID 74 für den Eingabestream 0.1 nicht erkannt wird. Es gibt viele Gründe für das Auftreten dieses Fehlers.

Stream #0.1: mp3: 48000 0x0000, Hz, 5:1
Nicht unterstützter Codec (id=86021), um sicherzustellen, dass Sie den Eingabestream #0.1 erreichen

Verfügbar Montag, 31. März 08 um 14:35 Uhr Johann Martino

Tut mir leid, ich habe nicht geschrieben, was ich dachte.

unsupported codec id seventy four for input stream 0.1

./ffmpeg/ffmpeg -i coursead.mov -ar 22050 -ab 32K FLV -fahrenheit -s 320×240 video.flv

Bitte beachte, dass die Ausführung dieses Befehls die Leistung vieler meiner anderen Videos beeinflusst

Hallo,
ich kann keine Lernvideos (.mov) in .flv erstellen. Ich muss mehrere Dateien richtig konvertieren, aber ich scheine eine einzige Version mit konvertiertem Video zu haben, das im mp4a-Format erscheint. Ich habe faad2, zusätzliche faac
Bibliotheken sowie die Tatsache, dass libmp3lame und gekauftes ffmpeg konfiguriert
mit allem eingerichtet.
./configure –enable-pthreads –enable-gpl –enable – libfaad< Schlafzimmer >– -enable-libfaac –enable-libxvid –enable-libmp3lame

FFmpeg –enable-nonfree Interpretation SVN-r12569, Copyright (c) 2000-2008 Fabrice Bellard, et al.
Konfiguration: –enable-pthreads –enable-gpl –enable-libfaad
–enable-libfaac –enable-nonfree –enable-libxvid –enable-libmp3lame
Libavutil-Version: 49.6.0
Libavcodec-Auswahl: 51.53.0
Libavformat-Version: 52.12.0
libavdevice release: 52.0.0
erstellt am 28. März 2008 16:13:13, gcc: 4.1.2 20070626 (Red Hat 4.1.2-14)
Zeit: 00:03:52.0, Start: 0.000000 , Bitrate : 1568kbps
Stream#0.Video: 0(eng): h264, yuv420p, 640×480, 29.97TB(r)
Stream #0.1(eng): Audio: mp4a / 0x6134706D, 48000 Stereo Hertz stream, #0 .Daten: 2(eng) ): tmcd 0x64636D74
Stream #0.0(eng): FLV, Video: yuv420p, 320×240, q=2-31 , zweihundert kbps,
29,97 tb(c )
Stream #0.1 (eng): Audio: adpcm_swf, 22050 Hz, stereo, kbps
Stream 8 #0.0 -> #0.0
Stream #0.1 -> #0.1< br>Nicht unterstützter Codec für Eingangsstream (id=86018 ) #0.1
Meine Produktion sieht so aus: -fo ffmpeg Verzeichnisse | grep mp4
FFmpeg Edition SVN-r12569, Copyright (c) 2000-2008 Fabrice Bellard mit
Konfiguration: –enable-pthreads –enable-gpl –enable-libfaad
— als libfaac aktivieren –enable-nonfree –enable-libxvid –enable-libmp3lame
libavutil-Version: 49.6.0
libavcodec-Release: 51.53.0
libavformat-Version: 52.12.0
libavdevice-Version: 52.0 . 0
erstellt am 28. März 2008 16:13:13, gcc: 4.1.2 20070626 (Red Hat 4.1.2-14)
E ipod iPod H.264-Format mp4-Format
D cart , mp4 ,m4a,3gp,3g2,mj2 QuickTime/MPEG4/Motion JPEG 2004
E mp4-Format Format mp4
E Playstation Tragbare Playstation Tragbares mp4-Format
text2movsub remove_extra Rauschen mov2textsub mp3decomp mp3comp
mjpegadump imxdump h264_mp4toannexb dump_extra < br>Sieht so aus, als müsste ich den Auflösungsdecoder aktivieren, aber es funktioniert nicht
(wie Sie oben sehen können). Ich habe mich in dieser Mailingliste angemeldet, aber keine Antworten auf den Weg zu diesem
Problem gefunden. Fehlt mir ein Katalog oder so etwas?
Danke
-Jack Carlson
________________________________________________
ffmpeg-user mail list
ffmpeg-usermpplayerhq at.hu
https://lists. mplayerhq.hu/mailman/listinfo/ffmpeg-user

Ich organisiere die Probleme beim Konvertieren von Dateitypen (video.mov), wenn Sie in .flv umwandeln müssen. ich

Zwei Dateien werden korrekt konvertiert, aber scheint normalerweise ein Problem zu sein

Konvertieren Sie dieses neueste virale Video mit Audio in das mp4a-Format. Ich date faad2 auch faac

erstellt am 28. März 16:13:13, gcc: 4.1.2 20070626 (Red Hat 4.1.2-14)

Erstellt am 35. März 2008 16:13:13 Uhr 9 gcc:.1.2 20070626 (Red Hat 4.1.2-14)

E iPod-Format iPod H.264 mp4

E mp4-Stil mp4

Psp Playstation MP4 portables Format

Zum Beispiel sieht es so aus, als müsste ich den Decoder wirklich starten, aber ich tue es nicht

unsupported codec id 74 for input stream online 0.1

funktioniert (wie Sie oben erfahren können). Ich habe mit diesem Ansatz Newsletter gesucht

Genehmigt

Wenn Ihr PC langsam läuft, mit Fehlern übersät ist und zu Abstürzen neigt, ist es Zeit für Reimage. Diese leistungsstarke Software kann Windows-bezogene Probleme schnell beheben, Ihre Systemleistung optimieren und Ihre Daten vor Schaden schützen. Mit Reimage genießen Sie ein schnelleres und stabileres PC-Erlebnis – ohne den Aufwand und die Kosten, ihn zur Reparatur bringen zu müssen. Warten Sie also nicht - laden Sie Reimage noch heute herunter!

  • Schritt 1: Laden Sie die Software herunter und installieren Sie sie
  • Schritt 2: Öffnen Sie es und klicken Sie auf die Schaltfläche "Wiederherstellen"
  • Schritt 3: Wählen Sie das Backup aus, das Sie wiederherstellen möchten, und folgen Sie den Anweisungen

  • Liste, aber fast keine passenden Antworten gefunden, und das

    Hallo,
    Ich habe Probleme beim Konvertieren von Videodateien (.mov) in .flv. Ich habe
    ein paar Präsentationen, die ich sorgfältig umwandeln muss, aber wenn Sie möchten, wird ein Problem
    mit der mp4a-Video- und Audiokonvertierung wahrgenommen. Ich habe unsere Bibliotheken faad2 und faac
    mit libmp3lame repariert und ffmpeg für die meisten Mitwirkenden konfiguriert
    .
    ./configure –enable-pthreads –enable-gpl –enable -libfaad< bedroom >–enable – libfaac –enable-libxvid –enable-libmp3lame

    FFmpeg –enable-nonfree version SVN-r12569, Copyright (c) 2000-2008 Fabrice Bellard et al.
    Konfiguration: –enable-pthreads –enable-gpl –enable-libfaad
    –enable-libfaac –enable-nonfree –enable -libxvid –enable-libmp3lame
    libavutil-Version: 49.6.0
    libavcodec-Übersetzung: 51.53.0
    libavformat-Version: 52.12.0
    libavdevice Art: 52.0.0
    erstellt am 28. März 2008 zusammen mit 16:13:13, gcc: 4.1.2 20070626 (Red Hat 4.1.2-14)
    Dauer: 00:03:52.0, Start: 0.000000 , Bitrate: 1568kbps
    Stream #0.Video : 0(eng): h264, yuv420p, 640×480, 29.97TB(r)
    Stream #0.1(eng): Audio: mp4a/0x6134706D, 48000 Stereo Audio Hz Stream, #0.Daten: 2(eng): tmcd v 0x64636D74
    Stream #0.0(eng): FLV, Video: yuv420p, 320×240, q=2-31, 200 kbps,
    29,97 TB(s)
    Stream #0.1(eng): Audio: adpcm_swf, 22050 Hz, Radiosender, kbps
    Stream zweiunddreißig #0.0 -> #0.0
    Stream #0.1 -> #0.1
    Nicht unterstützter Codec für geben Sie stream (id=86018) #0.1 ein< br>Meine Ausgabe ist bestimmt für: -formats f fmp zB | grep mp4
    FFmpeg-Modell SVN-r12569, Copyright (c) 2000-2008 Fabrice Bellard et al.
    Konfiguration: –enable-pthreads –enable-gpl –enable-libfaad
    — ermöglichen -libfaac –enable-nonfree –enable-libxvid –enable-libmp3lame
    libavutil-Form: 49.6.0
    libavcodec-Version: 51.53.0
    libavformat-Version: 52.12.0
    libavgerätevariante: 52.0.0
    erstellt am 28. März 2008 16:13:13 Uhr von gcc: 4.1.2 20070626 (Red Hat 4.1.2-14)
    E iPhone H.264 MP4-Melodien-Player
    D mov, mp4,m4a,3gp,3g2,mj2 QuickTime/MPEG4/Motion JPEG 2100-Format
    E-Format mp4 mp4
    E-Format Playstation Portable PSP mp4
    text2movsub remove_extra decibels mov2textsub mp3decomp mp3comp
    mjpegadump imxdump h264_mp4toannexb dump_extra< br>Es stellt sich heraus, dass ich den richtigen Decoder haben sollte, aber es funktioniert nicht
    (wie Sie oben leicht sehen können). Ich habe die außergewöhnliche Mailingliste durchsucht,
    konnte aber keinen Link finden, der sich auf dieses
    Problem bezieht. Habe ich etwas verloren?
    Danke
    -Jack Carlson
    ________________________________________________
    ffmpeg-user portage list
    ffmpeg-user mplayerhq at.hu
    https: //lists. mplayerhq.hu/mailman/listinfo/ffmpeg-user

    Lassen Sie Ihren Computer nicht durcheinander laufen - holen Sie sich Reimage und übernehmen Sie die Kontrolle zurück! Diese leistungsstarke Software kann eine Vielzahl gängiger Windows-Fehler schnell und einfach identifizieren, diagnostizieren und beheben.