In Che Modo Ciò Aiuterà A Correggere Il Codec ID 74 Non Supportato A Supporto Del Flusso Di Input 0.1

In Che Modo Ciò Aiuterà A Correggere Il Codec ID 74 Non Supportato A Supporto Del Flusso Di Input 0.1

January 25, 2022 Off By Monte Gordon

Non riesci più a sopportare gli errori e gli arresti anomali del tuo computer? Clicca qui per scaricare.

In altri casi, il tuo sistema potrebbe fornire ogni errore che il codec ID 74 generalmente non è supportato per il flusso di input 0.1. Ci possono essere molte ragioni per cui si verifica questo errore.

Stream #0.1: audio: 48000 0x0000, Hz, 5:1
Codec non supportato (id=86021) per raggiungere l’input, vedi #0.1

Disponibile lunedì 31 marzo 2008 alle 14:35 Johann Martino

Scusa, scusa, non ho scritto le cose che pensavo.

personalità codec non supportata 74 per flusso di input 0.1

./ffmpeg/ffmpeg -i coursead.mov -ar 22050 -ab 32K FLV -f -s 320×240 video.flv

Si prega di criticare il fatto che questo comando influisca sulle prestazioni sessuali di molti dei miei video aggiuntivi

Ciao,
Non riesco a convertire i video tutorial (.mov) per assicurarmi che tu sia .flv. Ho
diversi file per convertire correttamente, ma mi sembra di consentire loro di avere una versione con
youtube convertito con audio in formato mp4a. Ho installato faad2, librerie faac aggiuntive
, principalmente perché oltre a libmp3lame e investito in ffmpeg configurato
con tutto.
./configure –enable-pthreads –enable-gpl –enable – libfaad< br >– -enable-libfaac –enable-libxvid –enable-libmp3lame

FFmpeg –enable-nonfree translation SVN-r12569, Copyright (c) 2000-2008 Fabrice Bellard, et al.
Configurazione: –enable-pthreads –enable-gpl –enable-libfaad
–enable-libfaac –enable-nonfree –enable-libxvid –enable-libmp3lame
opzione libavutil: 49.6.0
versione libavcodec: 51.53.0
versione libavformat: 52.12.0
versione libavdevice: 52.0.0
creato il 28 marzo 2009 16:13:13, gcc: 4.1.2 20070626 (Red Hat 4.1.2-14)
ora: 00:03:52.0, inizio: 0.000000 , Bitrate : 1568kbps
Stream#0.Video: 0(eng): h264, yuv420p, 640×480, 29.97TB(r)
Stream #0.1(eng): Audio: mp4a / 0x6134706D, 48000 stazione radio Hertz stream, # 0.Data: 2(eng) ): tmcd / 0x64636D74
Stream #0.0(eng): FLV, Video: yuv420p, 320×240, q=2-31 , due quantità di kbps,
29.97 tb(c)
Stream #0.1 (eng): Audio: adpcm_swf, 22050 Hz, stereo, kbps
Stream 36 #0.0 -> #0.0
Stream #0.1 -> #0.1< br>Codec non supportato per lo spostamento di input ( id=86018) #0.1
Il mio output è come: -fo file ffmpeg | grep mp4
FFmpeg Edition SVN-r12569, Copyright (c) 2000-2008 Fabrice Bellard et al
Configurazione: –enable-pthreads –enable-gpl –enable-libfaad
— assicurati di get – libfaac –enable-nonfree –enable-libxvid –enable-libmp3lame
prodotto libavutil: 49.6.0
versione libavcodec: 51.53.0
versione libavformat: 52.12.0
opzione libavdevice : 52.0 .0
creato il 28 marzo 2007 16:13:13, gcc: 4.1.2 20070626 (Red Hat 4.1.2-14)
E iPod iPod formato H.264 formato mp4
D mov , mp4,m4a,3gp,3g2,mj2 QuickTime/MPEG4/Motion JPEG 2004
Formato E mp4 mp4
Playstation E Playstation portatile Formato mp4 portatile
text2movsub remove_extra Noise mov2textsub mp3decomp mp3comp
mjpegadump imxdump h264_mp4toannexb dump_extra
Sembra che io debba facilitare il corretto decoder, ma in realtà non funziona
(come puoi vedere sopra). Ho esaminato questa offerta di spedizione ma non ho trovato alcun rimedio correlato a questo
problema. Sto rinunciando a una libreria o qualcosa del genere?
Grazie
-Jack Carlson
________________________________________________
lista di posta per utenti ffmpeg
ffmpeg-usermpplayerhq at.hu
https://lists. mplayerhq.hu/mailman/listinfo/ffmpeg-user

Organizzo in genere problemi di conversione dei file (video.mov) in .flv. io

Due file vengono convertiti per farlo, ma sembra esserci un problema particolare

Convertire l’ultimo video virale che soffre di audio in formato mp4a. Io notte faad2 e faac

creato il 28 marzo 16:13:13, 2008 gcc: 4.1.2 20070626 (Red Hat 4.1.2-14)

Creato il 35 marzo 2008 16:13:13 4 gcc:.1.2 20070626 (Red Hat 4.1.2-14)

E iPod Format iPod H.264 mp4

Formato E mp4 formato mp4

Psp playstation formato mp4 rimovibile

Ad esempio, sembra che io abbia bisogno di riparare il decoder, ma non lo faccio

codec id 74 non supportato relativo al flusso di input 0.1

funziona (come la tua azienda può vedere sopra). Ho cercato anche in questa newsletter

Approvato

Se il tuo PC è lento, disseminato di errori e soggetto a arresti anomali, è il momento del Reimage. Questo potente software può risolvere rapidamente problemi relativi a Windows, ottimizzare le prestazioni del sistema e proteggere i tuoi dati da eventuali danni. Con Reimage, godrai di un'esperienza PC più veloce e stabile, senza il fastidio e la spesa di portarlo in riparazione. Quindi non aspettare: scarica Reimage oggi!

  • Fase 1: scarica e installa il software
  • Fase 2: aprilo e fai clic sul pulsante "Ripristina"
  • Passaggio 3: seleziona il backup da cui desideri ripristinare e segui le istruzioni

  • Elenco, ma trovato garantisce nessuna risposta adeguata, e questo

    Ciao,
    Non riesco a convertire video mp3 (.mov) in .flv. Guadagno
    alcuni file di cui ho bisogno per aiutarti a convertire correttamente, ma se lo desideri, sembra esserci il nuovo problema
    con l’acquisto di video e audio mp4a da prospettare. Ho installato la nostra faad2 e una faac
    librerie usando libmp3lame e configurato ffmpeg adatto a tutti i contributori
    .
    ./configure –enable-pthreads –enable-gpl –enable -libfaad< camera da letto > –enable -libfaac –enable-libxvid –enable-libmp3lame

    FFmpeg –enable-nonfree tipo SVN-r12569, Copyright (c) 2000-2008 Fabrice Bellard et al.
    Configurazione: –enable-pthreads –enable-gpl –enable-libfaad
    – -enable-libfaac –enable-nonfree –enable -libxvid –enable-libmp3lame
    varietà libavutil: 49.6.0
    versione libavcodec: 51.53.0
    versione libavformat: 52.12.0
    libavdevice versione: 52.0.0
    creato il 28 marzo 2009 alle 16:13:13, gcc: 4.1.2 20070626 (Red Hat 4.1.2-14)
    durata: 00:03:52.0, inizio: 0.000000 , Bitrate: 1568kbps
    Stream #0.Video: 0(eng): h264, yuv420p, 640×480, 29.97TB(r)
    Stream #0.1(eng): Audio: mp4a/0x6134706D, stream 48000 Hz stereo, # 0.Data: 2(eng): tmcd vs 0x64636D74
    Stream #0.0(eng): FLV, televisione: yuv420p, 320×240, q=2-31, 200 kbps,
    29,97 TB
    Stream #0.1(ita): Audio: adpcm_swf, 22050 Hz, stereo, kbps
    Stream trentadue #0.0 -> #0.0
    Stream #0.1 -> #0.1
    Codec non supportato destinato al flusso di input ( id=86018) #0.1< br>Il mio risultato per: -formats f fmpeg | grep mp4
    Versione FFmpeg SVN-r12569, leggi sul copyright (c) 2000-2008 Fabrice Bellard et al.
    Configurazione: –enable-pthreads –enable-gpl –enable-libfaad
    — enable -libfaac –enable-nonfree –enable-libxvid –enable-libmp3lame
    versione libavutil: 49.6.0
    versione libavcodec: 51.53.0
    account libavformat: 52.12.0
    versione libavdevice: 52.0.0
    creato il 28 marzo duemilaotto 16:13:13 da gcc: 4.1.2 20070626 (Red Hat 4.1.2-14)
    Lettore musicale in formato H.264 mp4 per iPhone E iPhone
    D mov, mp4,m4a,3gp,3g2,mj2 Formato QuickTime/MPEG4/Motion JPEG 2000
    Formato E formato mp4 mp4
    Formato E psp psp mp4
    text2movsub remove_extra livelli sonori mov2textsub mp3decomp mp3comp
    mjpegadump imxdump h264_mp4toannexb dump_extra< br>Sembra che dovrei avere tutto il decoder corretto, ma non funzionerà
    (come puoi vedere sopra). Sto scavando nella mailing list specifica
    ma non sono riuscito a realizzare alcun collegamento relativo a questo
    problema. Mi sfugge qualcosa?
    Grazie
    -Jack Carlson
    ________________________________________________
    lista portage ffmpeg-user
    ffmpeg-user mplayerhq at.hu
    https: //lists. mplayerhq.hu/mailman/listinfo/ffmpeg-user

    Non lasciare che il tuo computer funzioni in modo irregolare: ottieni Reimage e riprendi il controllo! Questo potente software può identificare, diagnosticare e correggere rapidamente e facilmente un'ampia gamma di errori comuni di Windows.