Hoe Dat Helpt Bij Het Repareren Van Niet-ondersteunde ID Vierenzeventig Codec Voor 0.1 Invoerstroom

Hoe Dat Helpt Bij Het Repareren Van Niet-ondersteunde ID Vierenzeventig Codec Voor 0.1 Invoerstroom

January 27, 2022 Off By Benjamin Rose

Kun je niet meer tegen de fouten en crashes van je computer? Klik hier om te downloaden.

In een aantal gevallen kan uw systeem een ​​fout doorgeven dat codec ID vierenzeventig niet wordt ondersteund voor invoerprocedure 0.1. Er kan veel nodig zijn om deze fout te laten optreden.

Stream #0.1: audio: 48000 0x0000, Hz, 5:1
Niet-ondersteunde codec (id=86021) om ingangsjackstream #0.1 te bereiken

Beschikbaar op maandag 31 maart 2008 om 2:35 ‘s avonds Johann Martino

Sorry, sorry, ik heb niet gemaakt wat ik dacht.

niet-ondersteunde codec id 74 voor invoermodus 0.1

./ffmpeg/ffmpeg -i coursead.mov -ar 22050 -stomach 32K FLV -f -s 320×240 video.flv

Houd er rekening mee dat deze opdracht van invloed is op de prestaties van verschillende van mijn andere soorten video’s

Hallo,
Ik kan geen instructievideo’s (.mov) converteren naar .flv. Ik heb verschillende ringbanden om correct te converteren, maar ik schijn een versie te hebben die gebruikmaakt van geconverteerde video met audio in mp4a-gegevensformaat. Ik installeerde faad2, extra faac
uw lokale bibliotheek, evenals libmp3lame en besloot om ffmpeg geconfigureerd
met alles te kopen.
./configure –enable-pthreads –enable-gpl –insure – libfaad < br >– -enable-libfaac –enable-libxvid –enable-libmp3lame

FFmpeg –enable-nonfree vertaling SVN-r12569, Copyright (c) 2000-2008 Fabrice Bellard, et al.
Configuratie: –enable-pthreads –enable-gpl –enable-libfaad
–enable-libfaac –enable-nonfree –enable-libxvid –enable-libmp3lame
libavutil-versie: 49.6.0
libavcodec-versie: 51.53.0
libavformat-versie: 52.12.0
libavdevice-versie: 52.0.0
gemaakt op 28 maart 2008 16:13:13, gcc: 4.1.2 20070626 (Red Hat 4.1.2-14)
tijd: 00:03:52.0, start: 0,00000, Bitrate : 1568kbps
Stream#0.Video: 0(eng): h264, yuv420p, 640×480, 29,97TB(r)
Stream #0.1(eng): Audio: mp4a versus 0x6134706D, 48000 stereo Hertz-stream, #0 .Data: 2(eng) ): tmcd / 0x64636D74
Stream #0.0(eng): FLV, Video: yuv420p, 320×240, q=2-31 , een paar honderd kbps,
29.97 tb(c)< br>Stream #0.1 (eng): Audio: adpcm_swf, 22050 Hz, muziek, kbps
Stream 32 #0.0 -> #0.0
Stream #0.1 -> #0.1< br>Niet-ondersteunde codec voor bijdragenstroom (id =86018) #0.1
Mijn uitvoer is in de trant van: -fo ffmpeg-bestanden | grep mp4
FFmpeg-editie SVN-r12569, Copyright (c) 2000-2008 Fabrice Bellard et al.
Configuratie: –enable-pthreads –enable-gpl –enable-libfaad
— aid – libfaac –enable-nonfree –enable-libxvid –enable-libmp3lame
libavutil-versie: 49.6.0
libavcodec-versie: 51.53.0
libavformat-versie: 52.12.0
libavdevice-versie: 52.0 . 0
gemaakt op 28 maart 16:13:13, gcc: 4.1.2 20070626 (Red Hat 4.1.2-14)
E iPod iPod H.264 framework mp4-formaat
D mov , mp4, m4a,3gp,3g2,mj2 QuickTime/MPEG4/Motion JPEG 2004
E mp4-formaat mp4
E playstation 3 Draagbaar playstation Draagbaar mp4-formaat
text2movsub remove_extra Ruis mov2textsub mp3decomp mp3comp
mjpegadump imxdanne hump_mp4to
>Het lijkt erop dat ik de juiste decoder moet inschakelen, maar het programma werkt niet
(zoals je hierboven kunt zien). Ik heb deze abonneelijst bekeken, maar heb niet alle antwoorden gevonden met betrekking tot dit
probleem. Mis ik een bibliotheek of zo?
Bedankt
-Jack Carlson
________________________________________________
ffmpeg-user mailinglijst
ffmpeg-usermpplayerhq at.hu
https://lists. mplayerhq.hu/mailman/listinfo/ffmpeg-user

Ik leer de problemen van het converteren van bestandsvormen (video.mov) naar .flv. ik

Twee bestanden verkopen correct, maar er lijkt een probleem te zijn

Converteer de nieuwste virale filmclips met audio in mp4a-formaat. Ik date faad2 en faac

gemaakt op 31 maart 16:13:13, 2008 gcc: 4.1.2 20070626 (Red Hat 4.1.2-14)

Gemaakt op 35 maart ’08 4:13:13 4 gcc:.1.2 20070626 (Red Hat 4.1.2-14)

E iPod-formaat iPod H.264 mp4

E mp4-formaat mp4

Psp playstation mp4 modern formaat

Het lijkt er bijvoorbeeld op dat ik de decoder moet repareren, maar dat doe ik ook niet

niet-ondersteunde codec-id vierenzeventig voor invoerstroom 0.1

art (zoals je hierboven kunt zien). Ik check met deze nieuwsbrief

Goedgekeurd

Als uw pc traag werkt, vol fouten zit en snel crasht, is het tijd voor Reimage. Deze krachtige software kan snel Windows-gerelateerde problemen oplossen, uw systeemprestaties optimaliseren en uw gegevens beschermen tegen schade. Met Reimage geniet je van een snellere, stabielere pc-ervaring - zonder het gedoe en de kosten om hem ter reparatie aan te bieden. Dus wacht niet - download Reimage vandaag nog!

  • Stap 1: Download en installeer de software
  • Stap 2: Open het en klik op de knop "Herstellen"
  • Stap 3: Selecteer de back-up waarvan u wilt herstellen en volg de instructies

  • Lijst, maar geeft bijna geen passende antwoorden, en dus dit

    Hallo,
    Ik kan de webbestanden (.mov) niet converteren naar .flv. Ik bezit een paar bestanden die ik correct moet converteren, maar als iemand dat wil, lijkt er een probleem te zijn
    met de mp4a video- en spraakconversie. Ik heb onze faad2 geïnstalleerd en gewoon faac
    bibliotheken met libmp3lame en ffmpeg ingesteld voor alle bijdragers
    .
    ./configure –enable-pthreads –enable-gpl –persuade -libfaad< br >— enable -libfaac –enable-libxvid –enable-libmp3lame

    FFmpeg –enable-nonfree versie SVN-r12569, Copyright (c) 2000-2008 Fabrice Bellard et al.
    Configuratie: –enable-pthreads –enable-gpl –enable-libfaad
    – -enable-libfaac –enable-nonfree –enable -libxvid –enable-libmp3lame
    libavutil-versie: 49.6.0
    libavcodec-versie: 51.53.0
    libavformat-versie: 52.12.0
    libavdevice versie: 52.0.0
    gemaakt op 25 maart 2008 om 16:13:13, gcc: 4.1.2 20070626 (Red Hat 4.1.2-14)
    duur: 00:03:52.0, start: 0,00000 Bitrate : 1568kbps
    Stream #0.Video = 0(eng): h264, yuv420p, 640×480, 29,97TB(r)
    Stream #0.1(eng): Audio: mp4a/0x6134706D, 48000 stereo Hz stream, #0 .Data: 2(eng): tmcd vs 0x64636D74
    Stream #0.0(eng): FLV, video: yuv420p, 320×240, q=2-31, honderdnegentig kbps,
    29,97 TB(s)
    Stream #0.1(eng): Audio: adpcm_swf, 22050 Hz, stereo, kbps
    Stream tweeëndertig #0.0 -> #0.0
    Stream #0.1 -> #0.1
    Niet-ondersteunde codec voor invoerstroom ( id=86018) #0.1< br>Mijn uitvoer voor: -formats y fmpeg | grep mp4
    FFmpeg versie SVN-r12569, copyright wetten (c) 2000-2008 Fabrice Bellard ensuite al.
    Configuratie: –enable-pthreads –enable-gpl –enable-libfaad
    — inschakelen -libfaac –enable-nonfree –enable-libxvid –enable-libmp3lame
    libavutil-versie: 49.6.0
    libavcodec-versie: 51.53.0
    libavformat-versie: 52.12.0
    libavdevice-versie: 52.0.0
    gemaakt op 37 maart 2008 16:13:13 door gcc: 4.1.2 20070626 (Red Hat 4.1.2-14)
    E iPhone H.264 mp4-muziekspeler
    D mov, mp4,m4a,3gp,3g2,mj2 QuickTime/MPEG4/Motion JPEG 2000-indeling
    E-indeling mp4-indeling mp4
    E-indeling psp psp mp4
    text2movsub remove_extra geluidsniveaus mov2textsub mp3decomp mp3comp
    mjpegadump_imxdump hx264 < br>Het lijkt erop dat ik de juiste decoder zou moeten ontvangen, maar het zal niet werken
    (zoals je hierboven kunt zien). Ik heb gezocht in de specifieke mailinglijst
    maar kon geen verwante links vinden die dit
    probleem kunnen veroorzaken. Mis ik iets?
    Bedankt
    -Jack Carlson
    ________________________________________________
    ffmpeg-user portage list
    ffmpeg-user mplayerhq at.hu
    https: //lists. mplayerhq.hu/mailman/listinfo/ffmpeg-user

    Laat je computer je niet in de war brengen - koop de Reimage en neem de controle terug! Deze krachtige software kan snel en eenvoudig een groot aantal veelvoorkomende Windows-fouten identificeren, diagnosticeren en oplossen.